Трембита (Олег Николаевский) [1968, музыкальная комедия, HDTVRip-AVC]

Ответить на тему
Статистика раздачи
Размер:  2,86 GB   |    Зарегистрирован:  3 месяца 30 дней   |    Скачан:  0 раз
DL-List: Нет

Полного источника не было: Никогда

   
 
Автор Сообщение

edich ®

Пол: Не указан

Стаж: 4 месяца 5 дней

Сообщений: 97

Создавать темы 18-Мар-2019 10:03

[Цитировать]

Трембита- Жанр: музыкальная комедия
Год выпуска: 1968
Продолжительность: 01:27:25
Субтитры: русские-Режиссёр: Олег Николаевский-В ролях:
Евгений Весник, Ольга Аросева, Борис Савченко, Людмила Купина (озвучание - Ия Саввина), Алексей Чернов, Николай Трофимов, Юлия Вуккерт, Александр Галевский, Иван Переверзев, Сергей Блинников, Савелий Крамаров, Илья Клявер, Иван Матвеев, Николай Пишванов, Галина Короткевич, Леонид Шехтман, Валентина Пугачёва, Лев Степанов
Описание:
После окончания Великой Отечественной войны в Закарпатье появляется Богдан Сусик, бывший дворецкий графа Шенброка. Только ему известно о тайнике, где бежавший с отступавшими немцами помещик спрятал свои миллионы.-Исходник | Сэмпл | Кинопоиск-Качество видео: HDTVRip-AVC, спасибо ylnian за запись трансляции.
Формат видео: MKV
Видео: x264 (High@L4.1); 1152x486, Display aspect ratio 2.370:1, 25.000 fps, 4500 Kbps
Аудио: AC-3; 16 bits 48 Khz; 2.0 ch 192 Kbps; CBR
Формат субтитров: softsub (SRT)

MediaInfo

x264 log

avs [info]: 1152x486p 1:1 @ 25/1 fps (cfr)
avs [info]: color matrix: bt709
x264 [info]: using SAR=1/1
x264 [info]: using cpu capabilities: MMX2 SSE2Fast SSSE3 SSE4.2
x264 [info]: profile High, level 4.1, 4:2:0, 8-bit
x264 [info]: frame I:894 Avg QP:18.69 size: 91690
x264 [info]: frame P:32571 Avg QP:20.73 size: 38313
x264 [info]: frame B:97579 Avg QP:22.65 size: 16591
x264 [info]: consecutive B-frames: 2.1% 4.4% 7.5% 48.8% 15.3% 17.1% 2.6% 2.0% 0.1%
x264 [info]: mb I I16..4: 3.1% 79.1% 17.8%
x264 [info]: mb P I16..4: 0.4% 19.8% 2.0% P16..4: 26.8% 32.9% 14.8% 2.8% 0.3% skip: 0.3%
x264 [info]: mb B I16..4: 0.1% 3.7% 0.2% B16..8: 36.2% 23.4% 4.0% direct:12.5% skip:19.9% L0:35.1% L1:38.8% BI:26.1%
x264 [info]: 8x8 transform intra:89.8% inter:58.6%
x264 [info]: direct mvs spatial:98.3% temporal:1.7%
x264 [info]: coded y,uvDC,uvAC intra: 96.5% 82.8% 46.8% inter: 49.9% 37.5% 7.9%
x264 [info]: i16 v,h,dc,p: 23% 13% 16% 48%
x264 [info]: i8 v,h,dc,ddl,ddr,vr,hd,vl,hu: 12% 10% 9% 8% 12% 11% 12% 11% 15%
x264 [info]: i4 v,h,dc,ddl,ddr,vr,hd,vl,hu: 17% 10% 4% 7% 13% 13% 13% 10% 13%
x264 [info]: i8c dc,h,v,p: 31% 32% 22% 16%
x264 [info]: Weighted P-Frames: Y:27.2% UV:13.3%
x264 [info]: ref P L0: 44.4% 15.9% 14.3% 5.5% 3.9% 3.2% 2.7% 1.7% 1.6% 1.4% 1.3% 1.2% 1.2% 1.2% 0.3% 0.0%
x264 [info]: ref B L0: 86.0% 6.5% 2.1% 1.2% 0.9% 0.8% 0.6% 0.4% 0.4% 0.3% 0.3% 0.3% 0.2%
x264 [info]: ref B L1: 97.5% 2.5%
x264 [info]: kb/s:4500.32

-
General
Unique ID : 191381006022443746169461423986836151765 (0x8FFAA41A7293B24BAC29B0A1247A9DD5)
Complete name : Трембита.1968.mkv
Format : Matroska
Format version : Version 2
File size : 2.86 GiB
Duration : 1 h 27 min
Overall bit rate : 4 691 kb/s
Encoded date : UTC 2019-02-26 08:31:45
Writing application : mkvmerge v7.8.0 ('River Man') 32bit built on Mar 27 2015 16:18:02
Writing library : libebml v1.3.1 + libmatroska v1.4.2
Video
ID : 1
Format : AVC
Format/Info : Advanced Video Codec
Format profile : High@L4.1
Format settings : CABAC / 14 Ref Frames
Format settings, CABAC : Yes
Format settings, ReFrames : 14 frames
Codec ID : V_MPEG4/ISO/AVC
Duration : 1 h 27 min
Bit rate : 4 500 kb/s
Width : 1 152 pixels
Height : 486 pixels
Display aspect ratio : 2.40:1
Frame rate mode : Constant
Frame rate : 25.000 FPS
Color space : YUV
Chroma subsampling : 4:2:0
Bit depth : 8 bits
Scan type : Progressive
Bits/(Pixel*Frame) : 0.322
Stream size : 2.69 GiB (94%)
Title : Трембита.1968
Writing library : x264 core 157 r2867+103 0d6443f t_mod_Custom_2 [8-bit@all X86]
Encoding settings : cabac=1 / ref=14 / deblock=1:-2:-2 / analyse=0x3:0x133 / me=umh / subme=11 / psy=1 / fade_compensate=0.00 / psy_rd=1.12:0.20 / mixed_ref=1 / me_range=32 / chroma_me=1 / trellis=2 / 8x8dct=1 / cqm=0 / deadzone=21,11 / fast_pskip=0 / chroma_qp_offset=-3 / threads=12 / lookahead_threads=2 / sliced_threads=0 / nr=0 / decimate=0 / interlaced=0 / bluray_compat=0 / constrained_intra=0 / fgo=0 / bframes=8 / b_pyramid=2 / b_adapt=2 / b_bias=0 / direct=3 / weightb=1 / open_gop=0 / weightp=2 / keyint=250 / keyint_min=25 / scenecut=40 / intra_refresh=0 / rc_lookahead=60 / rc=2pass / mbtree=0 / bitrate=4500 / ratetol=1.0 / qcomp=0.67 / qpmin=0:0:0 / qpmax=69:69:69 / qpstep=4 / cplxblur=20.0 / qblur=0.5 / vbv_maxrate=62500 / vbv_bufsize=78125 / nal_hrd=none / filler=0 / ip_ratio=1.35 / pb_ratio=1.30 / aq=1:0.90 / aq-sensitivity=10.00 / aq-factor=1.00:1.00:1.00 / aq2=0 / aq3=0
Language : Russian
Default : Yes
Forced : No
Color range : Limited
Color primaries : BT.709
Transfer characteristics : BT.709
Matrix coefficients : BT.709
Audio
ID : 2
Format : AC-3
Format/Info : Audio Coding 3
Codec ID : A_AC3
Duration : 1 h 27 min
Bit rate mode : Constant
Bit rate : 192 kb/s
Channel(s) : 2 channels
Channel positions : Front: L R
Sampling rate : 48.0 kHz
Frame rate : 31.250 FPS (1536 SPF)
Bit depth : 16 bits
Compression mode : Lossy
Stream size : 120 MiB (4%)
Title : AC-3; 16 bits 48 Khz; 2.0ch 192 Kbps; CBR
Language : Russian
Service kind : Complete Main
Default : Yes
Forced : No
Text
ID : 3
Format : UTF-8
Codec ID : S_TEXT/UTF8
Codec ID/Info : UTF-8 Plain Text
Title : Субтитры русские
Language : Russian
Default : No
Forced : No

Доп инфо

Осталось два анонса по ~ 8 секунд на 32-й и 54-й минутах фильма.


Закрыты
http://cybertorrent.ru/forum/viewtopic.php?p=76783321#76783321
* Обновление 01.02.2019. Замена на рип с другого исходника.* Обновление 26.02.2019. Мелкие исправления.
[cybertorrent.ru].t87.torrent 
Торрент: Зарегистрирован [ 2019-03-18 10:04 ] · B55E3332DE2D2F6101B44F6308C2572A5434A3D3

Скачать .torrent

Скачать

15 KB

Статус: проверено
Скачан: 0 раз
Размер: 2,86 GB
terms.php
[Профиль] [ЛС]
Показать сообщения:    
Ответить на тему

Текущее время: 17-Июл 18:43

Часовой пояс: UTC ± 0



Вы не можете начинать темы
Вы не можете отвечать на сообщения
Вы не можете редактировать свои сообщения
Вы не можете удалять свои сообщения
Вы не можете голосовать в опросах
Вы не можете прикреплять файлы к сообщениям
Вы можете скачивать файлы