Эй вы, ковбои! (Абдулла Карсакбаев) [1974, детский, мелодрама, DVB] Dub (Ленфильм)

Ответить на тему
Статистика раздачи
Размер:  1,07 GB   |    Зарегистрирован:  5 месяцев   |    Скачан:  0 раз

Полного источника не было: Никогда

   
 
Автор Сообщение

Leonard ®

Пол: Не указан

Стаж: 5 месяцев 6 дней

Сообщений: 57

Создавать темы 18-Мар-2019 10:03

[Цитировать]

Эй вы, ковбои! Жанр: детский, мелодрама
Студия: Казахфильм
Продолжительность: 01:03:24
Год выпуска: 1974
Перевод: Профессиональный (дублированный) - Студия "Ленфильм"-Режиссёр: Абдулла Карсакбаев
В ролях: Чинара Берсугурова, Марат Ботабаев, Бахыт Шарденов, Алдан Байсеитов, Еркин Кенжебаев, Арыстан Шарденов, Канабек Байсеитов, Макиль Куланбаев, Алдаберген Нурбеков, Аскар Сейтказин...-Описание: О школьниках одного из казахских аулов, которые поклялись друг другу выиграть межколхозные спортивные состязания.-
Семпл: http://sendfile.su/1368103-Качество: DVB [Ел Арна] (эфир 03.10.2017)
Формат: TS
Видео: AVC, 720x576 (16:9) @ 1047x576, 25 fps, ~2098 kbps, 0.202 bit/pixel
Аудио: [RUS] MPEG-1 Audio layer 2, 48 kHz, 2 ch, 192 kbps

Mediainfo

Общее
Идентификатор : 1 (0x1)
Полное имя : F:\Эй_вы_ковбои_1974_DVB.ts
Формат : MPEG-TS
Размер файла : 1,07 Гбайт
Продолжительность : 1 ч. 3 м.
Режим общего битрейта : Переменный
Общий поток : 2411 Кбит/сек
Видео
Идентификатор : 67 (0x43)
Идентификатор меню : 1 (0x1)
Формат : AVC
Формат/Информация : Advanced Video Codec
Профиль формата : High@L3
Параметр CABAC формата : Да
Параметр RefFrames формата : 3 кадра
Идентификатор кодека : 27
Продолжительность : 1 ч. 3 м.
Битрейт : 2098 Кбит/сек
Ширина : 720 пикселей
Высота : 576 пикселей
Соотношение сторон : 16:9
Частота кадров : 25,000 кадров/сек
Стандарт вещания : Component
Цветовое пространство : YUV
Субдискретизация насыщенности : 4:2:0
Битовая глубина : 8 бит
Тип развёртки : Чересстрочная
Метод сохранения типа развёртки : Раздельные поля
Порядок развёртки : Верхнее поле первое
Бит/(Пиксели*Кадры) : 0.202
Размер потока : 951 Мбайт (87%)
Цветовой диапазон : Limited
Основные цвета : BT.601 PAL
Характеристики трансфера : BT.470 System B, BT.470 System G
Коэффициенты матрицы : BT.470 System B, BT.470 System G
Аудио
Идентификатор : 68 (0x44)
Идентификатор меню : 1 (0x1)
Формат : MPEG Audio
Версия формата : Version 1
Профиль формата : Layer 2
Идентификатор кодека : 3
Продолжительность : 1 ч. 3 м.
Вид битрейта : Постоянный
Битрейт : 192 Кбит/сек
Каналы : 2 канала
Частота : 48,0 КГц
Метод сжатия : С потерями
Задержка видео : -120 мс.
Размер потока : 87,1 Мбайт (8%)
Язык : English

Скриншоты

[cybertorrent.ru].t89.torrent 
Торрент: Зарегистрирован [ 2019-03-18 10:04 ] · 55F76D3D6E533388A82F1B49D39966915684B1F5

Скачать .torrent

Скачать

11 KB

Статус: проверено
Скачан: 0 раз
Размер: 1,07 GB
terms.php
[Профиль] [ЛС]
Показать сообщения:    
Ответить на тему

Текущее время: 19-Авг 03:51

Часовой пояс: UTC ± 0



Вы не можете начинать темы
Вы не можете отвечать на сообщения
Вы не можете редактировать свои сообщения
Вы не можете удалять свои сообщения
Вы не можете голосовать в опросах
Вы не можете прикреплять файлы к сообщениям
Вы можете скачивать файлы