Джек Ричер / Jack Reacher (Кристофер МакКуорри / Christopher McQuarrie) [2012, США, боевик, триллер, детектив, криминал, BDRip] Dub CEE

Ответить на тему
Статистика раздачи
Размер:  1,46 GB   |    Зарегистрирован:  2 месяца 12 дней   |    Скачан:  0 раз

Полного источника не было: Никогда

   
 
Автор Сообщение

cooman ®

Пол: Не указан

Стаж: 2 месяца 12 дней

Сообщений: 5

Создавать темы 12-Мар-2019 14:05

[Цитировать]

Джек Ричер / Jack Reacher
«У закона есть пределы. У него их нет»
-Страна: США / Paramount Pictures, Mutual Film Corporation, Skydance Productions
Жанр: боевик, триллер, детектив, криминал
Год выпуска: 2012
Продолжительность: 02:10:24
Перевод: Профессиональный (дублированный) лицензия CEE
Субтитры: нет
Режиссер: Кристофер МакКуорри / Christopher McQuarrie
В ролях: Том Круз, Розамунд Пайк, Джай Кортни, Дэвид Ойелоуо, Ричард Дженкинс, Роберт Дювалл, Вернер Херцог, Джозеф Сикора, Майкл Рэймонд-Джеймс, Алексия Фаст, Александр Родс, Джеймс Мартин Келли, Рон Пучилло, Кристен Далтон, Николь Скотт, Кристофер Стадулис, Дилан Кассман, Скотт А. Мартин, Тэмми Фелис.
Описание: Снайпер убивает нескольких случайных прохожих. Его находят и арестовывают. Все улики указывают на него. На допросе вместо признания он пишет имя — Джек Ричер. Больше обвиняемый не может ничего сказать, поскольку после избиения заключёнными впадает в кому. Загадочный Джек Ричер появляется незамедлительно. Что теперь будет с убийцей?-Рейтинг
imdb.com: 7.0 (86 015)
kinopoisk.ru: 7.326 (24 912)
MPAA: - детям до 13 лет просмотр не желателен-Сэмпл: http://multi-up.com/871104-Качество видео: BDRip [JACK_REACHER_REMUX_HDCLUB]
Формат видео: AVI
Видео: XviD build 65, 720x304 (2.37:1), 23.976 fps, ~1406 kbps avg, 0.268 bit/pixel
Аудио: 48 kHz, AC3 Dolby Digital, 2/0 (L,R) ch, ~192 kbps avg (DUB)-

MediaInfo

General
Complete name : D\Jack.Reacher.2012.Dub.BDRip.1,46Gb.XviD.AC3.avi
Format : AVI
Format/Info : Audio Video Interleave
File size : 1.46 GiB
Duration : 2h 10mn
Overall bit rate : 1 607 Kbps
Writing application : VirtualDubModRus 1.5.10.2 (build 2542/release)
Writing library : VirtualDubMod build 2542/release
Video
ID : 0
Format : MPEG-4 Visual
Format profile : Advanced Simple@L5
Format settings, BVOP : 1
Format settings, QPel : No
Format settings, GMC : No warppoints
Format settings, Matrix : Custom
Codec ID : XVID
Codec ID/Hint : XviD
Duration : 2h 10mn
Bit rate : 1 406 Kbps
Width : 720 pixels
Height : 304 pixels
Display aspect ratio : 2.35:1
Frame rate : 23.976 fps
Color space : YUV
Chroma subsampling : 4:2:0
Bit depth : 8 bits
Scan type : Progressive
Compression mode : Lossy
Bits/(Pixel*Frame) : 0.268
Stream size : 1.28 GiB (87%)
Writing library : XviD 65
Audio
ID : 1
Format : AC-3
Format/Info : Audio Coding 3
Mode extension : CM (complete main)
Format settings, Endianness : Big
Codec ID : 2000
Duration : 2h 10mn
Bit rate mode : Constant
Bit rate : 192 Kbps
Channel(s) : 6 channels
Channel positions : Front: L C R, Side: L R, LFE
Sampling rate : 48.0 KHz
Bit depth : 16 bits
Compression mode : Lossy
Stream size : 179 MiB (12%)
Alignment : Split accross interleaves
Interleave, duration : 42 ms (1.00 video frame)
Interleave, preload duration : 500 ms
Title : DUB
[cybertorrent.ru].t9.torrent 
Торрент: Зарегистрирован [ 2019-03-12 14:05 ] · 4FF90BAE9C0CA96785B87FF6418985C8F25DAFAF

Скачать .torrent

Скачать

15 KB

Статус: проверено
Скачан: 0 раз
Размер: 1,46 GB
terms.php
[Профиль] [ЛС]
Показать сообщения:    
Ответить на тему

Текущее время: 25-Май 09:36

Часовой пояс: UTC ± 0



Вы не можете начинать темы
Вы не можете отвечать на сообщения
Вы не можете редактировать свои сообщения
Вы не можете удалять свои сообщения
Вы не можете голосовать в опросах
Вы не можете прикреплять файлы к сообщениям
Вы можете скачивать файлы