Паруса моего детства (Леонид Мартынюк) [1981, детский, приключения, семейный, DVB]

Ответить на тему
Статистика раздачи
Размер:  1,24 GB   |    Зарегистрирован:  2 месяца 29 дней   |    Скачан:  0 раз

Полного источника не было: Никогда

   
 
Автор Сообщение

Leonard ®

Пол: Не указан

Стаж: 3 месяца 4 дня

Сообщений: 54

Создавать темы 18-Мар-2019 10:03

[Цитировать]

Паруса моего детства
Жанр: детский, приключения, семейный
Год выпуска: 1981
Продолжительность: 01:06:35
Режиссёр: Леонид Мартынюк
В ролях: Дима Прокопчук, Денис Германов, Эдуард Марцевич, Виктор Тарасов, Станислав Гнездилов, Иван Мацкевич, Нина Пискарёва, Андрей Душечкин, Анатолий Гурьев
Описание: 1918 год. Небольшой уездный городок на Могилевщине охвачен революционными событиями. Беспризорник Степка Царев, запутавшийся в своих наблюдениях за городской жизнью, однажды встречает моряка-балтийца. Председатель ревкома большевик Лозовик становится ему настоящим другом и помогает мальчишке найти свое место в драматических событиях тех лет.
Доп. информация: Запись потока *.ts со спутника ABS-2, 75° в.д., удаление рекламы программой VideoReDo.
Качество видео: DVB
Формат видео: MPEG-TS
Видео: MPEG2 Video, 704(768)x576 (4:3), 25,000 кадров/сек, 2 349 Кбит/сек
Аудио: MPEG Audio, 48,0 КГц, 192 Кбит/сек, 2 канала

MediaInfo

General
ID : 1 (0x1)
Complete name : D:\MPG\ПАРУСА МОЕГО ДЕТСТВА (TPO).ts
Format : MPEG-TS
File size : 1.24 GiB
Duration : 1 h 6 min
Overall bit rate mode : Variable
Overall bit rate : 2 675 kb/s
Video
ID : 531 (0x213)
Menu ID : 1 (0x1)
Format : MPEG Video
Format version : Version 2
Format profile : Main@Main
Format settings : CustomMatrix / BVOP
Format settings, BVOP : Yes
Format settings, Matrix : Custom
Format settings, GOP : Variable
Format settings, picture st : Frame
Codec ID : 2
Duration : 1 h 6 min
Bit rate mode : Variable
Bit rate : 2 349 kb/s
Maximum bit rate : 15.0 Mb/s
Width : 704 pixels
Height : 576 pixels
Display aspect ratio : 4:3
Frame rate : 25.000 FPS
Standard : PAL
Color space : YUV
Chroma subsampling : 4:2:0
Bit depth : 8 bits
Scan type : Interlaced
Scan order : Top Field First
Compression mode : Lossy
Bits/(Pixel*Frame) : 0.232
Time code of first frame : 00:00:00:00
Time code source : Group of pictures header
GOP, Open/Closed : Open
GOP, Open/Closed of first f : Closed
Stream size : 1.09 GiB (88%)
Audio
ID : 532 (0x214)
Menu ID : 1 (0x1)
Format : MPEG Audio
Format version : Version 1
Format profile : Layer 2
Codec ID : 3
Duration : 1 h 6 min
Bit rate mode : Constant
Bit rate : 192 kb/s
Channel(s) : 2 channels
Sampling rate : 48.0 kHz
Compression mode : Lossy
Delay relative to video : 10 ms
Stream size : 91.5 MiB (7%)
Language : Russian
[cybertorrent.ru].t91.torrent 
Торрент: Зарегистрирован [ 2019-03-18 10:04 ] · 660AA7FCB94DF29A4B1DAC2E0D836F467AB9039E

Скачать .torrent

Скачать

13 KB

Статус: проверено
Скачан: 0 раз
Размер: 1,24 GB
terms.php
[Профиль] [ЛС]
Показать сообщения:    
Ответить на тему

Текущее время: 16-Июн 19:38

Часовой пояс: UTC ± 0



Вы не можете начинать темы
Вы не можете отвечать на сообщения
Вы не можете редактировать свои сообщения
Вы не можете удалять свои сообщения
Вы не можете голосовать в опросах
Вы не можете прикреплять файлы к сообщениям
Вы можете скачивать файлы