Приключения Толи Клюквина (Виктор Эйсымонт) [1964, приключения, SATRip-AVC]

Ответить на тему
Статистика раздачи
Размер:  1,56 GB   |    Зарегистрирован:  2 месяца 29 дней   |    Скачан:  0 раз

Полного источника не было: Никогда

   
 
Автор Сообщение

Leonard ®

Пол: Не указан

Стаж: 3 месяца 4 дня

Сообщений: 54

Создавать темы 18-Мар-2019 10:03

[Цитировать]

Приключения Толи Клюквина- Жанр: приключения
Год выпуска: 1964
Продолжительность: 01:02:12-Режиссёр: Виктор Эйсымонт-В ролях:
Андрей Филатов, Татьяна Пельтцер, Роман Боровков, Нина Гребешкова, Евгений Весник, Борис Новиков, Марк Перцовский, Сергей Филиппов, Светлана Харитонова, Зоя Чекулаева, Владимир Смирнов, Виолетта Сеземова, Владимир Пешня, Игорь Тверской
Описание:
Толя Клюквин отправляется в гости к своему другу. Неожиданно дорогу ему перебегает черная кошка. Испугавшись, мальчик поворачивает в другую сторону. Вот тут-то и подстерегают его опасности и неприятности.-Исходник | Сэмпл | Кинопоиск-Качество видео: SATRip-AVC, за исходник спасибо TarasBilbо, Cheef mate
Формат видео: MKV
Видео: x264 (High@L4.1); 704@768x576 25.000 fps; Display aspect ratio: 4:3; 3387 Kbps
Аудио: AC-3; 16 bits 48 Khz; 2.0ch 192 Kbps; CBR

MediaInfo

x264 log

avs [info]: 704x576p 12:11 @ 25/1 fps (cfr)
x264 [info]: using SAR=12/11
x264 [info]: using cpu capabilities: MMX2 SSE2Fast SSSE3 SSE4.2
x264 [info]: profile High, level 4.1
x264 [info]: frame I:498 Avg QP:20.53 size: 50789
x264 [info]: frame P:20300 Avg QP:21.95 size: 31097
x264 [info]: frame B:72512 Avg QP:23.83 size: 12739
x264 [info]: consecutive B-frames: 1.1% 1.9% 4.2% 35.5% 16.2% 37.7% 2.1% 1.2% 0.1% 0.0%
x264 [info]: mb I I16..4: 1.6% 93.3% 5.2%
x264 [info]: mb P I16..4: 0.2% 17.5% 1.5% P16..4: 34.5% 29.9% 15.6% 0.6% 0.1% skip: 0.1%
x264 [info]: mb B I16..4: 0.0% 1.5% 0.1% B16..8: 42.0% 20.5% 6.1% direct:12.9% skip:16.9% L0:38.6% L1:37.5% BI:23.8%
x264 [info]: 8x8 transform intra:91.5% inter:69.9%
x264 [info]: coded y,uvDC,uvAC intra: 98.8% 25.6% 0.9% inter: 55.2% 9.4% 0.1%
x264 [info]: i16 v,h,dc,p: 27% 15% 11% 47%
x264 [info]: i8 v,h,dc,ddl,ddr,vr,hd,vl,hu: 12% 9% 7% 9% 13% 13% 13% 12% 13%
x264 [info]: i4 v,h,dc,ddl,ddr,vr,hd,vl,hu: 10% 7% 2% 9% 15% 16% 15% 13% 14%
x264 [info]: i8c dc,h,v,p: 54% 30% 13% 3%
x264 [info]: Weighted P-Frames: Y:44.8% UV:0.5%
x264 [info]: ref P L0: 37.6% 13.7% 13.4% 7.6% 5.1% 4.3% 3.5% 2.4% 2.1% 1.9% 1.7% 1.6% 1.4% 1.4% 1.3% 1.0%
x264 [info]: ref B L0: 85.3% 5.6% 2.4% 1.4% 1.0% 0.9% 0.7% 0.5% 0.4% 0.4% 0.4% 0.3% 0.3% 0.2% 0.1%
x264 [info]: ref B L1: 97.9% 2.1%
x264 [info]: kb/s:3387.12
-General
Unique ID : 218391870257857678771005204370509458030 (0xA44CBE876EB00F8D96AFC5160E6AEA6E)
Complete name : Приключения Толи Клюквина.1964.mkv
Format : Matroska
Format version : Version 2
File size : 1.56 GiB
Duration : 1 h 2 min
Overall bit rate : 3 581 kb/s
Encoded date : UTC 2017-10-25 11:04:41
Writing application : mkvmerge v7.8.0 ('River Man') 32bit built on Mar 27 2015 16:18:02
Writing library : libebml v1.3.1 + libmatroska v1.4.2
Video
ID : 1
Format : AVC
Format/Info : Advanced Video Codec
Format profile : High@L4.1
Format settings, CABAC : Yes
Format settings, ReFrames : 16 frames
Codec ID : V_MPEG4/ISO/AVC
Duration : 1 h 2 min
Bit rate : 3 318 kb/s
Width : 704 pixels
Height : 576 pixels
Display aspect ratio : 4:3
Frame rate mode : Constant
Frame rate : 25.000 FPS
Standard : PAL
Color space : YUV
Chroma subsampling : 4:2:0
Bit depth : 8 bits
Scan type : Progressive
Bits/(Pixel*Frame) : 0.327
Stream size : 1.44 GiB (93%)
Title : Приключения Толи Клюквина.1964
Writing library : x264 core 152 r2851kMod ba24899
Encoding settings : cabac=1 / ref=16 / deblock=1:-1:-1 / analyse=0x3:0x133 / me=umh / subme=10 / psy=1 / fade_compensate=0.00 / psy_rd=1.00:0.15 / mixed_ref=1 / me_range=24 / chroma_me=1 / trellis=2 / 8x8dct=1 / cqm=0 / deadzone=21,11 / fast_pskip=1 / chroma_qp_offset=-3 / threads=12 / lookahead_threads=2 / sliced_threads=0 / nr=0 / decimate=1 / interlaced=0 / bluray_compat=0 / constrained_intra=0 / bframes=9 / b_pyramid=2 / b_adapt=2 / b_bias=0 / direct=1 / weightb=1 / open_gop=0 / weightp=2 / keyint=250 / keyint_min=25 / scenecut=40 / intra_refresh=0 / rc_lookahead=60 / rc=crf / mbtree=0 / crf=18.0000 / qcomp=0.60 / qpmin=0 / qpmax=40 / qpstep=4 / vbv_maxrate=50000 / vbv_bufsize=62500 / crf_max=0.0 / nal_hrd=none / filler=0 / ip_ratio=1.40 / pb_ratio=1.30 / aq=1:0.80
Language : Russian
Default : Yes
Forced : No
Color range : Limited
Color primaries : BT.601 PAL
Transfer characteristics : BT.470 System B, BT.470 System G
Matrix coefficients : BT.601
Audio
ID : 2
Format : AC-3
Format/Info : Audio Coding 3
Mode extension : CM (complete main)
Format settings, Endianness : Big
Codec ID : A_AC3
Duration : 1 h 2 min
Bit rate mode : Constant
Bit rate : 192 kb/s
Channel(s) : 2 channels
Channel positions : Front: L R
Sampling rate : 48.0 kHz
Frame rate : 31.250 FPS (1536 spf)
Compression mode : Lossy
Stream size : 85.4 MiB (5%)
Title : AC-3; 16 bits 48 Khz; 2.0ch 192 Kbps; CBR
Language : Russian
Default : Yes
Forced : No
[cybertorrent.ru].t94.torrent 
Торрент: Зарегистрирован [ 2019-03-18 10:04 ] · F0A30F54F24E696C78A14613021182A2843928FC

Скачать .torrent

Скачать

16 KB

Статус: проверено
Скачан: 0 раз
Размер: 1,56 GB
terms.php
[Профиль] [ЛС]
Показать сообщения:    
Ответить на тему

Текущее время: 16-Июн 19:48

Часовой пояс: UTC ± 0



Вы не можете начинать темы
Вы не можете отвечать на сообщения
Вы не можете редактировать свои сообщения
Вы не можете удалять свои сообщения
Вы не можете голосовать в опросах
Вы не можете прикреплять файлы к сообщениям
Вы можете скачивать файлы