Пятнадцатилетний капитан (Василий Журавлев) [1945, приключения, DVDRip-AVC]

Ответить на тему
Статистика раздачи
Размер:  1,25 GB   |    Зарегистрирован:  1 месяц 1 день   |    Скачан:  0 раз

Полного источника не было: Никогда

   
 
Автор Сообщение

Leonard ®

Пол: Не указан

Стаж: 1 месяц 7 дней

Сообщений: 51

Создавать темы 18-Мар-2019 10:02

[Цитировать]

Пятнадцатилетний капитан- Жанр: приключения
Год выпуска: 1945
Продолжительность: 01:18:09-Режиссёр: Василий Журавлев-В ролях:
Всеволод Ларионов, Александр Хвыля, Михаил Астангов, Елена Измайлова, Павел Суханов, Виктор Кулаков, Вейланд Родд, Коретти Арле-Тиц, Осип Абдулов, Сергей Ценин, Азарик Мессерер
Описание:
Экранизация одноименного романа Жюля Верна. Пятнадцатилетний юнга Дик Сэнд вынужден принять командование китобойной шхуной "Пилигрим". Из-за предательства судового кока Негоро корабль выбрасывает на африканский берег. Отважные герои попадают в плен к торговцам живым товаром.-Исходник | Сэмпл | Кинопоиск-Качество видео: DVDRip-AVC, за исходник спасибо Leo-777
Формат видео: MKV
Видео: x264 (High@L4.1); 696@759x572 25.000 fps; Display aspect ratio: 1.327:1; 2036 Kbps
Аудио: Оригинал: AC-3; 16 bits 48 Khz; 2.0ch 256 Kbps; CBR

MediaInfo

x264 log

avs [info]: 696x572p 12:11 @ 25/1 fps (cfr)
x264 [info]: using SAR=12/11
x264 [info]: using cpu capabilities: MMX2 SSE2Fast SSSE3 SSE4.2
x264 [info]: profile High, level 4.1
x264 [info]: frame I:677 Avg QP:18.01 size: 39616
x264 [info]: frame P:23187 Avg QP:19.65 size: 21591
x264 [info]: frame B:93367 Avg QP:22.40 size: 7135
x264 [info]: consecutive B-frames: 0.9% 0.6% 3.8% 18.4% 22.1% 49.2% 3.1% 1.1% 0.4% 0.2% 0.1%
x264 [info]: mb I I16..4: 2.8% 87.2% 10.0%
x264 [info]: mb P I16..4: 0.1% 12.0% 1.1% P16..4: 35.0% 38.9% 11.6% 0.8% 0.0% skip: 0.5%
x264 [info]: mb B I16..4: 0.0% 1.9% 0.1% B16..8: 35.0% 20.0% 2.5% direct: 8.1% skip:32.5% L0:41.2% L1:39.4% BI:19.4%
x264 [info]: 8x8 transform intra:91.3% inter:65.5%
x264 [info]: coded y,uvDC,uvAC intra: 97.9% 11.1% 0.5% inter: 35.3% 2.9% 0.0%
x264 [info]: i16 v,h,dc,p: 17% 8% 10% 66%
x264 [info]: i8 v,h,dc,ddl,ddr,vr,hd,vl,hu: 13% 11% 5% 8% 12% 13% 12% 13% 13%
x264 [info]: i4 v,h,dc,ddl,ddr,vr,hd,vl,hu: 13% 11% 2% 7% 14% 15% 14% 11% 13%
x264 [info]: i8c dc,h,v,p: 35% 57% 7% 1%
x264 [info]: Weighted P-Frames: Y:47.0% UV:0.5%
x264 [info]: ref P L0: 34.0% 9.9% 14.5% 8.8% 6.3% 5.3% 4.3% 2.7% 2.4% 2.2% 1.9% 1.8% 1.6% 1.6% 1.5% 1.1%
x264 [info]: ref B L0: 79.7% 7.3% 3.3% 2.1% 1.4% 1.3% 1.0% 0.7% 0.6% 0.6% 0.5% 0.5% 0.4% 0.4% 0.2%
x264 [info]: ref B L1: 97.8% 2.2%
x264 [info]: kb/s:2036.40
-General
Unique ID : 226483907135585119366607026887533410917 (0xAA6336C003F855A6B0CF9BA2BEE23A65)
Complete name : Пятнадцатилетний капитан.1945.mkv
Format : Matroska
Format version : Version 2
File size : 1.25 GiB
Duration : 1 h 18 min
Overall bit rate : 2 294 kb/s
Encoded date : UTC 2017-10-29 11:31:53
Writing application : mkvmerge v7.8.0 ('River Man') 32bit built on Mar 27 2015 16:18:02
Writing library : libebml v1.3.1 + libmatroska v1.4.2
Video
ID : 1
Format : AVC
Format/Info : Advanced Video Codec
Format profile : High@L4.1
Format settings, CABAC : Yes
Format settings, ReFrames : 16 frames
Codec ID : V_MPEG4/ISO/AVC
Duration : 1 h 18 min
Bit rate : 1 993 kb/s
Width : 696 pixels
Height : 572 pixels
Display aspect ratio : 4:3
Frame rate mode : Constant
Frame rate : 25.000 FPS
Color space : YUV
Chroma subsampling : 4:2:0
Bit depth : 8 bits
Scan type : Progressive
Bits/(Pixel*Frame) : 0.200
Stream size : 1.09 GiB (87%)
Title : Пятнадцатилетний капитан.1945
Writing library : x264 core 152 r2851kMod ba24899
Encoding settings : cabac=1 / ref=16 / deblock=1:-2:-2 / analyse=0x3:0x133 / me=umh / subme=11 / psy=1 / fade_compensate=0.00 / psy_rd=0.80:0.20 / mixed_ref=1 / me_range=32 / chroma_me=1 / trellis=2 / 8x8dct=1 / cqm=0 / deadzone=21,11 / fast_pskip=1 / chroma_qp_offset=-3 / threads=12 / lookahead_threads=3 / sliced_threads=0 / nr=0 / decimate=1 / interlaced=0 / bluray_compat=0 / constrained_intra=0 / bframes=10 / b_pyramid=2 / b_adapt=2 / b_bias=0 / direct=1 / weightb=1 / open_gop=0 / weightp=2 / keyint=250 / keyint_min=25 / scenecut=40 / intra_refresh=0 / rc_lookahead=60 / rc=crf / mbtree=0 / crf=18.0000 / qcomp=0.65 / qpmin=0 / qpmax=40 / qpstep=4 / vbv_maxrate=50000 / vbv_bufsize=62500 / crf_max=0.0 / nal_hrd=none / filler=0 / ip_ratio=1.40 / pb_ratio=1.30 / aq=1:0.50
Language : Russian
Default : Yes
Forced : No
Color range : Limited
Color primaries : BT.601 PAL
Transfer characteristics : BT.470 System B, BT.470 System G
Matrix coefficients : BT.601
Audio
ID : 2
Format : AC-3
Format/Info : Audio Coding 3
Mode extension : CM (complete main)
Format settings, Endianness : Big
Codec ID : A_AC3
Duration : 1 h 18 min
Bit rate mode : Constant
Bit rate : 256 kb/s
Channel(s) : 2 channels
Channel positions : Front: L R
Sampling rate : 48.0 kHz
Frame rate : 31.250 FPS (1536 spf)
Compression mode : Lossy
Stream size : 143 MiB (11%)
Title : Оригинал: AC-3; 16 bits 48 Khz; 2.0ch 256 Kbps; CBR
Language : Russian
Default : Yes
Forced : No

Если ваш рейтинг упадет ниже 0,3, вы не сможете скачивать торренты! Подробнее о рейтинге.

[cybertorrent.ru].t96.torrent 
Торрент: Зарегистрирован [ 2019-03-18 10:04 ] · 85EDC878BE7604BE91FA615F9AC1A8CC1DCAE4F0

Скачать .torrent

Скачать

13 KB

Статус: проверено
Скачан: 0 раз
Размер: 1,25 GB
terms.php
[Профиль] [ЛС]
Показать сообщения:    
Ответить на тему

Текущее время: 20-Апр 01:02

Часовой пояс: UTC ± 0



Вы не можете начинать темы
Вы не можете отвечать на сообщения
Вы не можете редактировать свои сообщения
Вы не можете удалять свои сообщения
Вы не можете голосовать в опросах
Вы не можете прикреплять файлы к сообщениям
Вы можете скачивать файлы