Сборник юмористических мультфильмов для взрослых 18+ / CARTOONS (Hal Freeman) [1983 (?), США, Германия (?), комедия, эротика, VHSRip-AVC] AVO (Горчаков)

Ответить на тему
Статистика раздачи
Размер:  1,22 GB   |    Зарегистрирован:  3 месяца 1 день   |    Скачан:  0 раз

Полного источника не было: Никогда

   
 
Автор Сообщение

HRIME ®

Пол: Не указан

Стаж: 3 месяца 7 дней

Сообщений: 52

Создавать темы 18-Мар-2019 10:02

[Цитировать]

Сборник юмористических мультфильмов для взрослых 18+ / Hal Freeman presents: CARTOONS
Страна: США, Германия (?)
Жанр: комедия, эротика
Продолжительность: 01:28:54
Год выпуска: 1983 (?)
Перевод: Авторский (одноголосый закадровый) Василия Горчакова
Русские субтитры: нет
Режиссёр: Hal Freeman
Хол Фриман представляет: добро пожаловать на презентацию развесёлых грязнулек или грязных смешилок. мы приготовили истории, которые происходят с известными историческими, сказочными, литературными героями в Германии, Дании, Испании, на Антильских о-вах, и даже в космосе... и усаживайтесь поудобнее, расслабьтесь и наслаждайтесь. музыкальное сопровождение оперы Джоаккино Антонио Россини "Сорока-воровка"
01. Odysseus und die Königin von Pornos - Одисей и королева Порноса /10:10/
02. Pimper power - Сутенёрская сила /07:24/
03. Schwänzel und Gretel - Шванзель и Гретель /6:36/
04. Rammel der Hase - Равель - Весёлый заяц /3:18/
05. Freibeuter der Mosen - Пираты /7:27/
06. 2:0 fur Boms Maus - Два-ноль в пользу Траха Мауса /2:26/
07. Raum - Ficker - Космическое путешествие /7:43/
08. Prinz Eisenschwanz - Принц Айзеншванц /3:31/
09. Die Fickinger - Викинги /4:19/
10. Dornröschen - Спящая красавица /7:09/
11. Zes Pikkebaasjes - Белоснежка и семь гномов /3:12/
12. Zwijntje Pik in Het Wild Westen - Пятачок на Диком Западе /7:06/
13. El Pichote de la Mancha - Дон Кихот из Ламанчи /17:35/
Доп. информация: оцифровал и подготовил karlll; пользуйтесь перемоткой по главам. три мульта, записанных на этой кассете пришлось вырезать из-за отсутствия перевода
из этого мульт-блока отдельной раздачей Король Дик / Карлик и ведьма (1973)
Качество: VHSRip-AVC ~Семпл~
Формат: MKV
Видео: MPEG4 (H264) 720x544 25fps 1727Kbps
Аудио: AC3 48KHz 2ch 192Kbps
Субтитры: отсутствуют

Подробные технические данные

Формат : Matroska
Версия формата : Version 2
Размер файла : 1,22 Гбайт
Продолжительность : 1 ч. 28 м.
Общий поток : 1958 Кбит/сек
Дата кодирования : UTC 2017-12-08 22:02:02
Программа кодирования : mkvmerge v6.9.1 ('Blue Panther') 32bit built on Apr 18 2014 18:15:44
Библиотека кодирования : libebml v1.3.0 + libmatroska v1.4.1
Видео
Идентификатор : 1
Формат : AVC
Формат/Информация : Advanced Video Codec
Профиль формата : High@L3.1
Параметр CABAC формата : Да
Параметр ReFrames формата : 7 кадров
Идентификатор кодека : V_MPEG4/ISO/AVC
Продолжительность : 1 ч. 28 м.
Битрейт : 1727 Кбит/сек
Ширина : 720 пикселей
Высота : 544 пикселя
Соотношение сторон : 4:3
Режим частоты кадров : Постоянный
Частота кадров : 25,000 кадров/сек
Цветовое пространство : YUV
Субдискретизация насыщенности : 4:2:0
Битовая глубина : 8 бит
Тип развёртки : Прогрессивная
Бит/(Пиксели*Кадры) : 0.176
Размер потока : 1,07 Гбайт (88%)
Заголовок : Il nano e la strega / King Dick / Zizi der Größte (1973)
Язык : English
Default : Да
Forced : Нет
Аудио
Идентификатор : 2
Формат : AC-3
Формат/Информация : Audio Coding 3
Расширение режима : CM (complete main)
Параметр Endianness формата : Big
Идентификатор кодека : A_AC3
Продолжительность : 1 ч. 28 м.
Вид битрейта : Постоянный
Битрейт : 192 Кбит/сек
Каналы : 2 канала
Расположение каналов : Front: L R
Частота : 48,0 КГц
Битовая глубина : 16 бит
Метод сжатия : С потерями
Задержка видео : 24 мс.
Размер потока : 122 Мбайт (10%)
Заголовок : перевод Василия Горчакова
Язык : Russian
Default : Да
Forced : Нет
Меню
00:00:00.000 : en:
00:00:58.000 : en:Odysseus und die Königin von Pornos
00:11:08.000 : en:Pimper Power
00:18:32.000 : en:Schwänzel und Gretel
00:25:08.000 : en:Rammel der Hase
00:28:26.000 : en:Freibeuter der Mösen
00:35:53.000 : en:2:0 fur Boms Maus
00:38:19.000 : en:Raum - Ficker
00:46:02.000 : en:Prinz Eisenschwanz
00:49:33.000 : en:Die Fickinger
00:53:52.000 : en:Dornröschen
01:01:01.000 : en:Zes Pikkebaasjes
01:04:13.000 : en:Zwijntje Pik in Het Wild Westen
01:11:19.000 : en:El Pichore de la Mancha

Скриншоты

[cybertorrent.ru].t97.torrent 
Торрент: Зарегистрирован [ 2019-03-18 10:04 ] · AAE3A80BE11514F1DE9353F54E00201020D9DACF

Скачать .torrent

Скачать

13 KB

Статус: проверено
Скачан: 0 раз
Размер: 1,22 GB
terms.php
[Профиль] [ЛС]
Показать сообщения:    
Ответить на тему

Текущее время: 20-Июн 00:02

Часовой пояс: UTC ± 0



Вы не можете начинать темы
Вы не можете отвечать на сообщения
Вы не можете редактировать свои сообщения
Вы не можете удалять свои сообщения
Вы не можете голосовать в опросах
Вы не можете прикреплять файлы к сообщениям
Вы можете скачивать файлы