Тайна темной комнаты (Ольга Беляева) [2014, приключения, WEB-DLRip-AVC]

Ответить на тему
Статистика раздачи
Размер:  1,45 GB   |    Зарегистрирован:  6 месяцев   |    Скачан:  0 раз

Полного источника не было: Никогда

   
 
Автор Сообщение

Leonard ®

Пол: Не указан

Стаж: 6 месяцев 6 дней

Сообщений: 58

Создавать темы 18-Мар-2019 10:02

[Цитировать]

Тайна темной комнаты- Жанр: приключения
Год выпуска: 2014
Продолжительность: 01:19:37-Режиссёр: Ольга Беляева-В ролях:
Сергей Никоненко, Виктор Сухоруков, Галина Польских, Ирина Скобцева, Константин Крюков, Иван Агапов, Екатерина Воронина, Нина Маслова, Егор Губарев, Андрей Попович
Описание:
Два школьника решают исследовать таинственное окно, появляющееся на стене их дома в полночь во время полнолуния. Проникнув туда и оказавшись в тёмной комнате, они и не подозревают, какие приключения ждут их впереди-Сэмпл | Кинопоиск-Качество видео: WEB-DLRip-AVC
Формат видео: MKV
Видео: x264 (High@L4.1); 1144x640 24.000 fps; Display aspect ratio: 1.788:1; 2224 Kbps
Аудио: AC-3; 16 bits 48 Khz; 5.1ch 384 Kbps; CBR

MediaInfo

x264 log

avs [info]: 1144x640p 1:1 @ 24/1 fps (cfr)
x264 [info]: using SAR=1/1
x264 [info]: using cpu capabilities: MMX2 SSE2Fast SSSE3 SSE4.2
x264 [info]: profile High, level 4.1
x264 [info]: frame I:887 Avg QP:14.18 size: 74206
x264 [info]: frame P:31520 Avg QP:16.71 size: 23468
x264 [info]: frame B:82264 Avg QP:18.18 size: 6355
x264 [info]: consecutive B-frames: 3.0% 4.9% 6.4% 76.1% 4.1% 4.1% 0.4% 0.9% 0.1%
x264 [info]: mb I I16..4: 7.2% 75.1% 17.7%
x264 [info]: mb P I16..4: 0.8% 7.0% 0.9% P16..4: 33.4% 36.7% 11.2% 0.0% 0.0% skip:10.0%
x264 [info]: mb B I16..4: 0.1% 0.7% 0.1% B16..8: 29.6% 16.7% 2.5% direct: 4.3% skip:46.1% L0:38.6% L1:48.2% BI:13.2%
x264 [info]: 8x8 transform intra:79.1% inter:54.5%
x264 [info]: direct mvs spatial:97.8% temporal:2.2%
x264 [info]: coded y,uvDC,uvAC intra: 83.6% 76.0% 47.8% inter: 17.8% 13.4% 5.8%
x264 [info]: i16 v,h,dc,p: 32% 9% 3% 56%
x264 [info]: i8 v,h,dc,ddl,ddr,vr,hd,vl,hu: 11% 9% 7% 9% 12% 13% 12% 13% 13%
x264 [info]: i4 v,h,dc,ddl,ddr,vr,hd,vl,hu: 13% 8% 9% 8% 14% 13% 12% 10% 11%
x264 [info]: i8c dc,h,v,p: 33% 27% 21% 18%
x264 [info]: Weighted P-Frames: Y:2.3% UV:0.9%
x264 [info]: ref P L0: 53.5% 8.9% 16.3% 5.5% 4.3% 3.1% 2.8% 1.5% 1.4% 1.3% 1.3% 0.1% 0.0%
x264 [info]: ref B L0: 81.9% 9.0% 3.5% 1.7% 1.2% 0.9% 0.8% 0.5% 0.4% 0.2%
x264 [info]: ref B L1: 97.0% 3.0%
x264 [info]: kb/s:2224.10
-General
Unique ID : 235400113172359972382814369171364566647 (0xB11869A5DC44C2BCB79B75AE4CEED677)
Complete name : Тайна темной комнаты.2014.mkv
Format : Matroska
Format version : Version 2
File size : 1.45 GiB
Duration : 1 h 19 min
Overall bit rate : 2 610 kb/s
Encoded date : UTC 2018-01-03 11:56:44
Writing application : mkvmerge v7.8.0 ('River Man') 32bit built on Mar 27 2015 16:18:02
Writing library : libebml v1.3.1 + libmatroska v1.4.2
Video
ID : 1
Format : AVC
Format/Info : Advanced Video Codec
Format profile : High@L4.1
Format settings, CABAC : Yes
Format settings, ReFrames : 11 frames
Codec ID : V_MPEG4/ISO/AVC
Duration : 1 h 19 min
Bit rate : 2 224 kb/s
Width : 1 144 pixels
Height : 640 pixels
Display aspect ratio : 16:9
Frame rate mode : Constant
Frame rate : 24.000 FPS
Color space : YUV
Chroma subsampling : 4:2:0
Bit depth : 8 bits
Scan type : Progressive
Bits/(Pixel*Frame) : 0.127
Stream size : 1.21 GiB (83%)
Title : Тайна темной комнаты.2014
Writing library : x264 core 152 r2851kMod ba24899
Encoding settings : cabac=1 / ref=11 / deblock=1:-3:-2 / analyse=0x3:0x113 / me=umh / subme=11 / psy=1 / fade_compensate=0.00 / psy_rd=1.01:0.00 / mixed_ref=1 / me_range=32 / chroma_me=1 / trellis=2 / 8x8dct=1 / cqm=0 / deadzone=21,11 / fast_pskip=0 / chroma_qp_offset=-2 / threads=12 / lookahead_threads=2 / sliced_threads=0 / nr=0 / decimate=0 / interlaced=0 / bluray_compat=0 / constrained_intra=0 / bframes=8 / b_pyramid=2 / b_adapt=2 / b_bias=0 / direct=3 / weightb=1 / open_gop=0 / weightp=2 / keyint=250 / keyint_min=24 / scenecut=40 / intra_refresh=0 / rc_lookahead=60 / rc=2pass / mbtree=0 / bitrate=2224 / ratetol=1.0 / qcomp=0.55 / qpmin=0 / qpmax=69 / qpstep=4 / cplxblur=20.0 / qblur=0.5 / vbv_maxrate=62500 / vbv_bufsize=78125 / nal_hrd=none / filler=0 / ip_ratio=1.25 / pb_ratio=1.30 / aq=3:0.90 / zones=0,782,b=1.7
Language : Russian
Default : Yes
Forced : No
Color range : Limited
Color primaries : BT.709
Transfer characteristics : BT.709
Matrix coefficients : BT.709
Audio
ID : 2
Format : AC-3
Format/Info : Audio Coding 3
Mode extension : CM (complete main)
Format settings, Endianness : Big
Codec ID : A_AC3
Duration : 1 h 19 min
Bit rate mode : Constant
Bit rate : 384 kb/s
Channel(s) : 6 channels
Channel positions : Front: L C R, Side: L R, LFE
Sampling rate : 48.0 kHz
Frame rate : 31.250 FPS (1536 spf)
Compression mode : Lossy
Stream size : 219 MiB (15%)
Title : AC-3; 16 bits 48 Khz; 5.1ch 384 Kbps; CBR | iTunes
Language : Russian
Default : Yes
Forced : No

Скриншот c названием фильма

[cybertorrent.ru].t98.torrent 
Торрент: Зарегистрирован [ 2019-03-18 10:04 ] · 8DFBE71BBDE242861511BB1F018E933B334DC827

Скачать .torrent

Скачать

15 KB

Статус: проверено
Скачан: 0 раз
Размер: 1,45 GB
terms.php
[Профиль] [ЛС]
Показать сообщения:    
Ответить на тему

Текущее время: 19-Сен 05:04

Часовой пояс: UTC ± 0



Вы не можете начинать темы
Вы не можете отвечать на сообщения
Вы не можете редактировать свои сообщения
Вы не можете удалять свои сообщения
Вы не можете голосовать в опросах
Вы не можете прикреплять файлы к сообщениям
Вы можете скачивать файлы

Партнеры

Выражаем благодарность всем людям, внесшим вклад в наш сайт в далёком прошлом. Мы помним Вас, гордимся Вами и ждём Вас обратно!

Интересное в сети