Сказка о царе Салтане (Александр Птушко) [1966, Сказка, детский, семейный, экранизация, HDTVRip]

Ответить на тему
Статистика раздачи
Размер:  1,38 GB   |    Зарегистрирован:  5 месяцев   |    Скачан:  0 раз

Полного источника не было: Никогда

   
 
Автор Сообщение

Leonard ®

Пол: Не указан

Стаж: 5 месяцев 6 дней

Сообщений: 57

Создавать темы 18-Мар-2019 10:02

[Цитировать]

Сказка о царе Салтане
Жанр: Сказка, детский, семейный, экранизация
Год выпуска: 1966
Продолжительность: 01:21:35
Режиссёр: Александр Птушко
В ролях: Владимир Андреев, Лариса Голубкина, Олег Видов, Ксения Рябинкина, Сергей Мартинсон, Ольга Викландт, Вера Ивлева, Нина Беляева, Виктор Колпаков, Юрий Чекулаев, Валерий Носик, Григорий Шпигель, Евгений Майхровский, Яков Беленький, Александр Дегтярь, Артём Карапетян, Юрий Киреев, Григорий Михайлов, Михаил Орлов, Дмитрий Орловский, Гурген Тонунц, Владимир Ферапонтов
Описание: Музыкальный фильм по одноименной сказке А. С. Пушкина. Эта сказка, благодаря гению Александра Пушкина, великого поэта России, известна детям многих стран мира. В ней переживают удивительные приключения отважный царевич Гвидон, тридцать три богатыря, выходящих из пены морской под предводительством дядьки Черномора, прекрасная царевна-Лебедь, заколдованная злым волшебником, и, конечно, царь Салтан, поначалу разрушивший свое семейное счастье, но затем чудесным образом вновь вернувший его...
Доп. информация:
Автор релиза -
Источник аудио и видео для рипа - HDTV 1080i TS - моя запись с канала Первый HD
В качестве "заплаток" для замены всплывающих анонсов (3 вставки общей продолжительностью 45 сек) и для восстановления обрезанных титров в конце фильма (1 вставка 66 секунд) использовал видеоряд с HDTVRip-а от sudar007
В дорожке AC3, 48000 Гц, 6ch, 384 kbps по факту лишь 2 канала со звуком, а оставшиеся 4 канала пустые, поэтому была перекодирована в АС3 2.0 192 kbps
Из титров: Фильм восстановлен киноконцерном "Мосфильм" в 2001 году под руководством Анатолия Петрицкого



Сэмпл: https://yadi.sk/i/7Prd6NKQ3RCzBF
Рекламы нет!
Качество видео: HDTVRip
Формат видео: AVI
Видео: XviD, 720x304 (2,35:1), 25.000 fps, 2213 kbps, 0.404 bit/pixel
Аудио: Русский AC3, 48000 Гц, 2ch, 192 kbps

MediaInfo

Общее
Полное имя : D:\Сказка.о.царе.Салтане.1966.HDTVRip-ylnian.avi
Формат : AVI
Формат/Информация : Audio Video Interleave
Профиль формата : OpenDML
Размер файла : 1,38 Гбайт
Продолжительность : 1 ч. 21 м.
Общий поток : 2418 Кбит/сек
Видео
Идентификатор : 0
Формат : MPEG-4 Visual
Профиль формата : Advanced Simple@L5
Настройки формата : BVOP1
Параметр BVOP формата : 1
Параметр QPel формата : Нет
Параметр GMC формата : Без точки перехода
Параметр матрицы формата : Default (MPEG)
Идентификатор кодека : XVID
Идентификатор кодека/Подсказка : XviD
Продолжительность : 1 ч. 21 м.
Битрейт : 2213 Кбит/сек
Ширина : 720 пикселей
Высота : 304 пикселя
Соотношение сторон : 2,35:1
Частота кадров : 25,000 кадров/сек
Цветовое пространство : YUV
Субдискретизация насыщенности : 4:2:0
Битовая глубина : 8 бит
Тип развёртки : Прогрессивная
Метод сжатия : С потерями
Бит/(Пиксели*Кадры) : 0.404
Размер потока : 1,26 Гбайт (92%)
Библиотека кодирования : XviD 67
Аудио
Идентификатор : 1
Формат : AC-3
Формат/Информация : Audio Coding 3
Идентификатор кодека : 2000
Продолжительность : 1 ч. 21 м.
Вид битрейта : Постоянный
Битрейт : 192 Кбит/сек
Каналы : 2 канала
Расположение каналов : Front: L R
Частота : 48,0 КГц
Частота кадров : 31,250 кадров/сек (1536 SPF)
Битовая глубина : 16 бит
Метод сжатия : С потерями
Размер потока : 112 Мбайт (8%)
Выравнивание : Соединение по промежуткам
Продолжительность промежутка : 32 мс. (0,80 видеокадр)
ServiceKind/String : Complete Main

Сравнение

Сравнение скриншотов с DVDRip-ом от Basilevs - http://screenshotcomparison.com/comparison/128072/ - в моём рипе больше полезная площадь кадра, лучше качество особенно в тёмных сценах
Сравнение скриншотов с HDTVRip-ом от sudar007 - http://screenshotcomparison.com/comparison/128088 - в моём рипе больше полезная площадь кадра сверху и снизу, нет эффекта "пелены", лучше качество особенно в тёмных сценах
[cybertorrent.ru].t99.torrent 
Торрент: Зарегистрирован [ 2019-03-18 10:04 ] · 1A8A001A12F02552BCB57B462A6F53FE5231087E

Скачать .torrent

Скачать

14 KB

Статус: проверено
Скачан: 0 раз
Размер: 1,38 GB
terms.php
[Профиль] [ЛС]
Показать сообщения:    
Ответить на тему

Текущее время: 18-Авг 23:12

Часовой пояс: UTC ± 0



Вы не можете начинать темы
Вы не можете отвечать на сообщения
Вы не можете редактировать свои сообщения
Вы не можете удалять свои сообщения
Вы не можете голосовать в опросах
Вы не можете прикреплять файлы к сообщениям
Вы можете скачивать файлы